Всегда рабочее зеркало без VPN и Proxy просто перед .vidak.icu напиши любое слово или цифру, Пример http://9bq2.vidak.icu

iTunes

2 сезон

1 сезон

1

1 сезон

iTunes

2 сезон

13

1 сезон

Deluxe

pack

Рекомендуем

Пиратка

30

ВАЖНО

RePack

MK11

RePack

jed

RePack

fifa19

RePack

RDR2

RePack

NEED FOR SPEED™ PAYBACK

Кинопоиск HD

6 сезон

 Острые козырьки 6 сезон

Все сериалы

все сериалы на PB.wtf

RePack

FAR CRY 5

Anonymous, нам критически не хватает 5601 руб. на оплату серверов и переферии за Апрель, помоги нам пожалуйста, вся надежда только на тебя. В благодарность мы отключим тебе всю рекламу на сайте!

×
  
Magnet ссылка

Триггер / Провокатор / Сезоны: 2 / Серии: 1-16 из 16 (Игорь Твердохлебов) [2021, Драма, WEB-DL 720p] 067.vidak.icu

Триггер через торрент 067.vidak.icu

Раздают: 3 [ 33 KB/s ] Качают: 2 [ 0 KB/s ]
Размер: 24.96 GB | Добавлен: 14 д. назад | Торрент скачан:20 раз
Смотреть онлайн Триггер | Скачать    Ребята, помогите собрать деньги на оплату серверов!!!

07-01-2022 17:04 Триггер Скачать торрент  

Триггер | Провокатор
Год выпуска: 2021
Страна: Россия
Студия: ООО ПК «Среда»
Жанр: Драма
Продолжительность: ~ 00:52:00 серия
Субтитры: Русские (полные)

Режиссер: Игорь Твердохлебов

rating

В ролях: Максим Матвеев, Игорь Костолевский, Светлана Иванова, Виктория Маслова, Марк Юсеф, Роман Маякин, Владислав Тирон, Ангелина Стречина, Марианна Шульц, Даниил Воробьёв, Андрей Мерзликин, Макар Запорожский, Сабина Ахмедова, Екатерина Варнава, Светлана Устинова, Дарья Коныжева, Мадлен Джабраилова, Лена Тронина, Сергей Гилёв, Олег Осипов (II), Андрей Назимов, Николай Шрайбер, Яна Сексте, Антон Хабаров, Алексей Розин, Елена Хабарова, Зоя Бербер, Олег Евтеев, Всеволод Болдин, Гарик Айвазов, Хельга Филиппова, Павел Ворожцов, Артём Быстров, Алёна Малахова, Александр Сергеев (II), Дмитрий Овчинников, Эльвира Синельник, Александра Бабаскина, Юлия Бедарева, Каринэ Асланян, Мария Ремер, Алла Малкова, Арина Горбачёва, Александра Бурьянова, Юлия Беляева, Ника Вигель, Маргарита Дьяченкова, Ярослав Доронин, Сергей Лобынцев, Артём Осипов, Евгений Добряков, Екатерина Шевченко, Андрей Дудников, Лиана Гриба, Александр Лавров (II), Фёдор Федосеев, Иван Егоров (II), Сергей Арбатский, Кристина Вайнас, Ксения Дубник, Александр Мякушко, Яна Сивакова, Максим Демченко (II), Максим Дромашко, Рафаэль Ханбеков, Сергей Новосад, Эльвира Цымбал

Описание: Узнав о гибели близкого человека, Артем Стрелецкий решает выйти из клиники, где провел больше года, восстанавливаясь после сокрушительных событий первого сезона. Он хочет докопаться до истины и понять, что произошло на самом деле. И параллельно возвращается к практике — Артем готов помогать всем и каждому: детям домашних тиранов, жертвам насилия, тем, кто потерял родных или чувствует себя ненужным, тем, кто боится иметь детей, и тем, кто своих детей не принимает. Стрелецкий водит людей по их прошлому, показывает откуда растут проблемы и берётся за самые сложные случаи. С легкостью помогая другим, он все сильнее запутывается в собственных чувствах и отношениях с друзьями и врагами. Но теперь в его жизни есть та, рядом с кем он может быть просто собой.

Качество: WEB-DL 720p
Формат: MKV

Видео: MPEG-4 AVC, ~ 4000 Кбит/с, 1280x720, 25 кадр/с
Аудио: AC3 Dolby Digital, 48.0 kHz, 2/0 (L,R) ch, 192 kbps
скриншот  скриншот  скриншот  скриншот  

Общее
Уникальный идентификатор : 229952468462253664424045730297095450479 (0xACFF3C06DCEFC395A50685BCFB78EF6F)
Полное имя : D:\Trigger.S02.2021.WEB-DL.(720p).ExKinoRay\Trigger.S02.E01.2021.WEB-DL.(720p).ExKinoRay.mkv
Формат : Matroska
Версия формата : Version 4
Размер файла : 1,67 Гбайт
Продолжительность : 53 м. 44 с.
Общий поток : 4 440 Кбит/сек
Название фильма : Trigger.S02.E01.2021.WEB-DL.1080p
Дата кодирования : UTC 2022-01-07 16:38:16
Программа кодирования : mkvmerge v6.9.1 ('Blue Panther') 64bit built on Apr 18 2014 18:23:38
Библиотека кодирования : libebml v1.3.0 + libmatroska v1.4.1
Attachments : poster.jpg

Видео
Идентификатор : 1
Формат : AVC
Формат/Информация : Advanced Video Codec
Профиль формата : [email protected]
Настройки формата : CABAC / 5 Ref Frames
Параметр CABAC формата : Да
Параметр RefFrames формата : 5 кадров
Идентификатор кодека : V_MPEG4/ISO/AVC
Продолжительность : 53 м. 44 с.
Битрейт : 4 000 Кбит/сек
Ширина : 1 280 пикселей
Высота : 720 пикселей
Соотношение сторон : 16:9
Режим частоты кадров : Постоянный
Частота кадров : 25,000 кадров/сек
Цветовое пространство : YUV
Субдискретизация насыщенности : 4:2:0
Битовая глубина : 8 бит
Тип развёртки : Прогрессивная
Бит/(Пиксели*Кадры) : 0.174
Размер потока : 1,47 Гбайт (88%)
Библиотека кодирования : x264 core 157
Настройки программы : cabac=1 / ref=5 / deblock=1:0:0 / analyse=0x3:0x133 / me=umh / subme=10 / psy=1 / psy_rd=1.00:0.00 / mixed_ref=1 / me_range=24 / chroma_me=1 / trellis=2 / 8x8dct=1 / cqm=0 / deadzone=21,11 / fast_pskip=1 / chroma_qp_offset=-2 / threads=22 / lookahead_threads=3 / sliced_threads=0 / nr=0 / decimate=1 / interlaced=0 / bluray_compat=0 / constrained_intra=0 / bframes=8 / b_pyramid=2 / b_adapt=2 / b_bias=0 / direct=3 / weightb=1 / open_gop=0 / weightp=2 / keyint=200 / keyint_min=100 / scenecut=40 / intra_refresh=0 / rc_lookahead=60 / rc=2pass / mbtree=1 / bitrate=4000 / ratetol=1.0 / qcomp=0.60 / qpmin=0 / qpmax=69 / qpstep=4 / cplxblur=20.0 / qblur=0.5 / vbv_maxrate=4400 / vbv_bufsize=6000 / nal_hrd=none / filler=0 / ip_ratio=1.40 / aq=1:1.00
Default : Да
Forced : Нет

Аудио
Идентификатор : 2
Формат : AC-3
Формат/Информация : Audio Coding 3
Коммерческое название : Dolby Digital
Идентификатор кодека : A_AC3
Продолжительность : 53 м. 44 с.
Вид битрейта : Постоянный
Битрейт : 448 Кбит/сек
Каналы : 2 канала
Channel layout : L R
Частота : 48,0 КГц
Частота кадров : 31,250 кадров/сек (1536 SPF)
Метод сжатия : С потерями
Размер потока : 172 Мбайт (10%)
Язык : Russian
Service kind : Complete Main
Default : Да
Forced : Нет

Текст
Идентификатор : 3
Формат : UTF-8
Идентификатор кодека : S_TEXT/UTF8
Идентификатор кодека/Информация : UTF-8 Plain Text
Язык : Russian
Default : Нет
Forced : Нет

Внимание! Раздача ведётся путём добавления новых серий; при каждом добавлении создаётся новый торрент. Чтобы начать докачку новой серии, пользователям необходимо сделать следующее:
(1) остановить скачивание,
(2) удалить старый торрент у себя из клиента (старые серии удалять не надо),
(3) скачать новый торрент и запустить его у себя в клиенте вместо старого, при этом указать клиенту путь в старую папку куда и должно происходить скачивание новых серий.

Ваш клиент при этом должен произвести хеширование (проверку) старой папки (если не производит сам - помогите ему сделать это), и будет докачивать только те серии которых у вас ещё нет. Старые серии при этом не удаляются, а продолжают раздаваться!

Eсли вы уже удалили старые серии, то предотвратить повторную закачку старых серий можно, отжав галочку в соответсвующих местах при запуске нового торрента. По возможности, желательно не удалять старые серии как можно дольше чтобы релизёр не столько продолжал раздавать старые серии, а смог сконцентрироваться на новых.
067.vidak.icu



Скачать Триггер через торрент https://i116.fastpic.org/big/2022/0107/19/7d4249ee62d28751b2ef53751f0c2919.png Скачать, смотреть онлайн Триггер бесплантно в хорошем качестве Описание: Узнав о гибели близкого человека, Артем Стрелецкий решает выйти из клиники, где провел больше года, восстанавливаясь после ... 9 10 10
Торрент: Зарегистрирован [2022-05-14 15:36] · скачан: 20 раз
Статус: √ проверено
Размер: 24.96 GB
Как cкачать? Как скачать Триггер через торрент | UTorrent

% Раздел Тема Автор DL S | L
Наши сериалы [ 36.29 GB ] Триггер / Провокатор / Сезоны: 2 / Серии: 1-16 из 16 [2021 WEB-DL 1080p] bober100 Скачать
5 | 4
Наши сериалы [ 11.03 GB ] Триггер / Провокатор / Сезоны: 2 / Серии: 1-16 из 16 [2021 WEB-DLRip-AVC] bober100 Скачать
17 | 2
Наши сериалы [ 11.37 GB ] Триггер / Провокатор / Сезоны: 2 / Серии: 1-16 из 16 [2021 WEB-DLRip] bober100 Скачать
14 | 8


Последний раз редактировалось: bober100 (2022-05-14 15:36), всего редактировалось 9 раз(а)

28-11-2019 20:33  

Отключить всю рекламу на сайте

03-04-2022 12:11 Триггер Скачать торрент  

класс.067.vidak.icu



    Дорогой пользователь! Огромная просьба, поблагодарите релизера, оцените раздачу и оставьте свои комментарий, если Вы скачали Триггер через торрент бесплатно!
    Комментировать посты могут только пользователи прошедшие не сложную регистрацию
    Показать сообщения:    

    Триггер через торрент
    Скачать бесплатно Триггер
    Триггер скачать торрент
    Триггер смотреть онлайн
    Cкачать фильм Триггер бесплатно
    Триггер скачать торрент в хорошем качестве
    Триггер смотреть онлайн бесплатно в хорошем качестве


    Вы не можете начинать темы
    Вы не можете отвечать на сообщения
    Вы не можете редактировать свои сообщения
    Вы не можете удалять свои сообщения
    Вы не можете голосовать в опросах
    Вы не можете прикреплять файлы к сообщениям
    Вы можете скачивать файлы