Всегда рабочее зеркало без VPN и Proxy просто перед .vidak.icu напиши любое слово или цифру, Пример http://z96b.vidak.icu

iTunes

2 сезон

1 сезон

1

1 сезон

iTunes

2 сезон

13

1 сезон

Deluxe

pack

Рекомендуем

Пиратка

30

ВАЖНО

RePack

MK11

RePack

jed

RePack

fifa19

RePack

RDR2

RePack

NEED FOR SPEED™ PAYBACK

Кинопоиск HD

6 сезон

 Острые козырьки 6 сезон

Все сериалы

все сериалы на PB.wtf

RePack

FAR CRY 5

Anonymous, нам критически не хватает 5601 руб. на оплату серверов и переферии за Апрель, помоги нам пожалуйста, вся надежда только на тебя. В благодарность мы отключим тебе всю рекламу на сайте!

×
  
Magnet ссылка

Лунный рыцарь / Moon Knight / Сезон: 1 / Серии: 1-6 из 6 (Джастин Бенсон, Мохамед Диаб, Аарон Мурхед) [2022, Ужасы, фантастика, фэнтези, боевик, драма, приключения, UHD WEB-DL 2160p] DUB +2xMVO (rus, ukr) 067.vidak.icu

Лунный рыцарь через торрент 067.vidak.icu

Раздают: 3 [ 842 KB/s ] Качают: 2 [ 0 KB/s ]
Размер: 47.92 GB | Добавлен: 14 д. назад | Торрент скачан:20 раз
Смотреть онлайн Лунный рыцарь | Скачать    Ребята, помогите собрать деньги на оплату серверов!!!

31-03-2022 11:29 Лунный рыцарь Скачать торрент  

Лунный рыцарь
Moon Knight

Год выпуска: 2022
Страна: США
Студия: Marvel Studios Inc.
Жанр: Ужасы, фантастика, фэнтези, боевик, драма, приключения
Продолжительность: ~ 00:46:00 серия
Перевод:
Дублированный | Flarrow Films
Профессиональный (многоголосый) | NewComers
Профессиональный (многоголосый) | HDRezka Studio
Субтитры: Русские, английские

Режиссер: Джастин Бенсон, Мохамед Диаб, Аарон Мурхед

rating

В ролях: Оскар Айзек, Итан Хоук, May Calamawy, Гаспар Ульель, Ф. Мюррэй Абрахам, Фернанда Андраде, София Асир, Диана Бермудес, Энн Акин, Рей Лукас

Описание: Основанный на персонаже комиксов Marvel, созданном писателем Дугом Мёнчем и художником Доном Перлином, «Лунный рыцарь» от исполнительного продюсера Джереми Слейтера рассказывает историю Стивена Гранта (Оскар Айзек), кроткого «продавца сувениров», живущего в одиночестве в Лондоне недалеко от музея, где он работает. Бывший морской пехотинец долгое время работал на ЦРУ, после чего стал наёмником. Находясь на грани жизни и смерти, был воскрешён древним божеством. Он становится Лунным рыцарем после того, как он создал канал для египетского бога луны Хонсу, который наделил его особыми способностями. Хотя Стивен предпочел бы проводить свои дни дома или водить посетителей показывая экспонаты музея Древнего Египта, он обычно застревает в кладовой сувенирного магазина из-за своей неорганизованности на рабочем месте. Каким бы сознанием не обладал Стивен, он часто теряет значительные его части вместе с любыми воспоминаниями о том, что происходит всякий раз, когда он впадает в одно из своих загадочных состояний фуги. У него наблюдается расстройство личности, в результате которого в бою иногда сражаются его альтер-эго. Итан Хоук и Мэй Каламави присоединяются к сюжету сериала в роли Артура Хэрроу и Лейлы соответственно.

Качество: UHD WEB-DL 2160p
Формат: MKV

Видео: MPEG-H HEVC HDR, ~ 21.5 Мбит/с, 3840x2160, 23.976 кадр/с, 10 бит
Аудио 1 Rus: AC3 48.0 kHz, 2 ch, 320 Kbps Дублированный, Flarrow Films
Аудио 2 Rus: AC3 48.0 kHz, 6 ch, 384 Kbps MVO, NewComers
Аудио 3 Rus: AC3 48 kHz, AC3, 6 ch, 448 kbps HDRezka Studio
Аудио 4 Ukr: AC3 48 kHz, AC3, 6 ch, 448 kbps Цікава Ідея
Аудио 5 Eng: E-AC3 JOC, 48.0 kHz, 5.1 ch, 768 Kbps

Общее
Уникальный идентификатор : 240285444119513879412476060524553944339 (0xB4C54B0F5A53CAD9880561F79EEFBD13)
Полное имя : E:\Передел\Moon.Knight.S01.2160p.WEB-DL.x265.10bit.HDR.Master5\Moon.Knight.S01E01.The.Goldfish.Problem.2160p.WEB-DL.x265.10bit.HDR.Master5.mkv
Формат : Matroska
Версия формата : Version 4
Размер файла : 7,59 Гбайт
Продолжительность : 45 м. 38 с.
Общий поток : 23,8 Мбит/сек
Дата кодирования : UTC 2022-04-04 15:09:31
Программа кодирования : mkvmerge v7.9.0 ('Birds') 64bit
Библиотека кодирования : libebml v1.3.1 + libmatroska v1.4.2
Обложка : Yes
Attachments : cover.jpg

Видео
Идентификатор : 1
Формат : HEVC
Формат/Информация : High Efficiency Video Coding
Профиль формата : Main [email protected]@Main
Идентификатор кодека : V_MPEGH/ISO/HEVC
Продолжительность : 45 м. 35 с.
Битрейт : 21,5 Мбит/сек
Ширина : 3 840 пикселей
Высота : 2 160 пикселей
Соотношение сторон : 16:9
Режим частоты кадров : Постоянный
Частота кадров : 24,000 кадра/сек
Цветовое пространство : YUV
Субдискретизация насыщенности : 4:2:0
Битовая глубина : 10 бит
Бит/(Пиксели*Кадры) : 0.108
Размер потока : 6,84 Гбайт (90%)
Библиотека кодирования : x265 3.5:[Linux][GCC 9.3.0][64 bit] 10bit
Настройки программы : cpuid=1111039 / frame-threads=1 / numa-pools=16 / wpp / no-pmode / no-pme / no-psnr / no-ssim / log-level=2 / input-csp=1 / input-res=3840x2160 / interlace=0 / total-frames=0 / level-idc=50 / high-tier=0 / uhd-bd=0 / ref=3 / no-allow-non-conformance / repeat-headers / annexb / no-aud / no-hrd / info / hash=0 / no-temporal-layers / no-open-gop / min-keyint=48 / keyint=48 / gop-lookahead=0 / bframes=2 / b-adapt=0 / b-pyramid / bframe-bias=0 / rc-lookahead=48 / lookahead-slices=8 / scenecut=0 / hist-scenecut=0 / radl=0 / no-splice / no-intra-refresh / ctu=32 / min-cu-size=8 / no-rect / no-amp / max-tu-size=16 / tu-inter-depth=2 / tu-intra-depth=2 / limit-tu=0 / rdoq-level=1 / dynamic-rd=0.00 / no-ssim-rd / signhide / no-tskip / nr-intra=0 / nr-inter=0 / no-constrained-intra / no-strong-intra-smoothing / max-merge=3 / limit-refs=1 / no-limit-modes / me=1 / subme=2 / merange=44 / temporal-mvp / no-frame-dup / no-hme / weightp / no-weightb / no-analyze-src-pics / deblock=0:0 / no-sao / no-sao-non-deblock / rd=4 / selective-sao=0 / early-skip / rskip / no-fast-intra / no-tskip-fast / no-cu-lossless / b-intra / no-splitrd-skip / rdpenalty=1 / psy-rd=1.60 / psy-rdoq=5.00 / no-rd-refine / no-lossless / cbqpoffs=0 / crqpoffs=0 / rc=abr / bitrate=23000 / qcomp=0.75 / qpstep=4 / stats-write=0 / stats-read=0 / vbv-maxrate=25000 / vbv-bufsize=25000 / vbv-init=0.9 / ipratio=1.40 / pbratio=1.30 / aq-mode=3 / aq-strength=1.00 / no-cutree / zone-count=0 / no-strict-cbr / qg-size=32 / no-rc-grain / qpmax=69 / qpmin=0 / no-const-vbv / sar=1 / overscan=0 / videoformat=5 / range=0 / colorprim=9 / transfer=16 / colormatrix=9 / chromaloc=0 / display-window=0 / cll=0,0 / min-luma=0 / max-luma=1023 / log2-max-poc-lsb=8 / vui-timing-info / vui-hrd-info / slices=1 / no-opt-qp-pps / no-opt-ref-list-length-pps / no-multi-pass-opt-rps / scenecut-bias=0.00 / hist-threshold=0.01 / no-opt-cu-delta-qp / no-aq-motion / no-hdr10 / hdr10-opt / no-dhdr10-opt / no-idr-recovery-sei / analysis-reuse-level=0 / analysis-save-reuse-level=0 / analysis-load-reuse-level=0 / scale-factor=0 / refine-intra=0 / refine-inter=0 / refine-mv=1 / refine-ctu-distortion=0 / no-limit-sao / ctu-info=0 / no-lowpass-dct / refine-analysis-type=0 / copy-pic=1 / max-ausize-factor=1.0 / no-dynamic-refine / no-single-sei / no-hevc-aq / no-svt / no-field / qp-adaptation-range=1.00 / no-scenecut-aware-qpconformance-window-offsets / right=0 / bottom=0
Язык : English
Default : Да
Forced : Да
Цветовой диапазон : Limited
Основные цвета : BT.2020
Характеристики трансфера : PQ
Коэффициенты матрицы : BT.2020 non-constant

Аудио #1
Идентификатор : 2
Формат : AC-3
Формат/Информация : Audio Coding 3
Коммерческое название : Dolby Digital
Идентификатор кодека : A_AC3
Продолжительность : 45 м. 32 с.
Вид битрейта : Постоянный
Битрейт : 320 Кбит/сек
Каналы : 2 канала
Channel layout : L R
Частота : 48,0 КГц
Частота кадров : 31,250 кадров/сек (1536 SPF)
Метод сжатия : С потерями
Задержка видео : 3 с. 0 мс.
Размер потока : 104 Мбайт (1%)
Заголовок : Flarrow Films
Язык : Russian
Service kind : Complete Main
Default : Нет
Forced : Да

Аудио #2
Идентификатор : 3
Формат : AC-3
Формат/Информация : Audio Coding 3
Коммерческое название : Dolby Digital
Идентификатор кодека : A_AC3
Продолжительность : 45 м. 36 с.
Вид битрейта : Постоянный
Битрейт : 384 Кбит/сек
Каналы : 6 каналов
Channel layout : L R C LFE Ls Rs
Частота : 48,0 КГц
Частота кадров : 31,250 кадров/сек (1536 SPF)
Метод сжатия : С потерями
Размер потока : 125 Мбайт (2%)
Заголовок : NewComers
Язык : Russian
Service kind : Complete Main
Default : Нет
Forced : Нет

Аудио #3
Идентификатор : 4
Формат : AC-3
Формат/Информация : Audio Coding 3
Коммерческое название : Dolby Digital
Идентификатор кодека : A_AC3
Продолжительность : 45 м. 35 с.
Вид битрейта : Постоянный
Битрейт : 448 Кбит/сек
Каналы : 6 каналов
Channel layout : L R C LFE Ls Rs
Частота : 48,0 КГц
Частота кадров : 31,250 кадров/сек (1536 SPF)
Метод сжатия : С потерями
Задержка видео : 3 с. 0 мс.
Размер потока : 146 Мбайт (2%)
Заголовок : HDRezka Studio
Язык : Russian
Service kind : Complete Main
Default : Нет
Forced : Нет

Аудио #4
Идентификатор : 5
Формат : AC-3
Формат/Информация : Audio Coding 3
Коммерческое название : Dolby Digital
Идентификатор кодека : A_AC3
Продолжительность : 45 м. 32 с.
Вид битрейта : Постоянный
Битрейт : 448 Кбит/сек
Каналы : 6 каналов
Channel layout : L R C LFE Ls Rs
Частота : 48,0 КГц
Частота кадров : 31,250 кадров/сек (1536 SPF)
Метод сжатия : С потерями
Задержка видео : 3 с. 0 мс.
Размер потока : 146 Мбайт (2%)
Заголовок : Cikava Ideya
Язык : Ukrainian
Service kind : Complete Main
Default : Нет
Forced : Нет

Аудио #5
Идентификатор : 6
Формат : E-AC-3 JOC
Формат/Информация : Enhanced AC-3 with Joint Object Coding
Коммерческое название : Dolby Digital Plus with Dolby Atmos
Идентификатор кодека : A_EAC3
Продолжительность : 45 м. 35 с.
Вид битрейта : Постоянный
Битрейт : 768 Кбит/сек
Каналы : 6 каналов
Channel layout : L R C LFE Ls Rs
Частота : 48,0 КГц
Частота кадров : 31,250 кадров/сек (1536 SPF)
Метод сжатия : С потерями
Размер потока : 250 Мбайт (3%)
Язык : English
Service kind : Complete Main
Default : Да
Forced : Да
Complexity index : 16
Number of dynamic objects : 15
Bed channel count : 1 канал
Bed channel configuration : LFE

Текст #1
Идентификатор : 7
Формат : UTF-8
Идентификатор кодека : S_TEXT/UTF8
Идентификатор кодека/Информация : UTF-8 Plain Text
Продолжительность : 36 м. 55 с.
Битрейт : 58 бит/сек
Count of elements : 450
Размер потока : 15,9 Кбайт (0%)
Заголовок : (Full)
Язык : English
Default : Нет
Forced : Нет

Текст #2
Идентификатор : 8
Формат : UTF-8
Идентификатор кодека : S_TEXT/UTF8
Идентификатор кодека/Информация : UTF-8 Plain Text
Продолжительность : 41 м. 1 с.
Битрейт : 83 бит/сек
Count of elements : 441
Размер потока : 25,0 Кбайт (0%)
Язык : Russian
Default : Да
Forced : Да

Текст #3
Идентификатор : 9
Формат : UTF-8
Идентификатор кодека : S_TEXT/UTF8
Идентификатор кодека/Информация : UTF-8 Plain Text
Продолжительность : 39 м. 25 с.
Битрейт : 85 бит/сек
Count of elements : 452
Размер потока : 24,8 Кбайт (0%)
Заголовок : (Full)
Язык : Russian
Default : Нет
Forced : Нет

Текст #4
Идентификатор : 10
Формат : UTF-8
Идентификатор кодека : S_TEXT/UTF8
Идентификатор кодека/Информация : UTF-8 Plain Text
Продолжительность : 41 м. 9 с.
Битрейт : 60 бит/сек
Count of elements : 555
Размер потока : 18,4 Кбайт (0%)
Заголовок : (SDH)
Язык : English
Default : Нет
Forced : Нет

Текст #5
Идентификатор : 11
Формат : UTF-8
Идентификатор кодека : S_TEXT/UTF8
Идентификатор кодека/Информация : UTF-8 Plain Text
Продолжительность : 39 м. 22 с.
Битрейт : 4 бит/сек
Count of elements : 20
Размер потока : 1,25 Кбайт (0%)
Заголовок : forced
Язык : Russian
Default : Нет
Forced : Нет

Текст #6
Идентификатор : 12
Формат : UTF-8
Идентификатор кодека : S_TEXT/UTF8
Идентификатор кодека/Информация : UTF-8 Plain Text
Продолжительность : 41 м. 1 с.
Битрейт : 82 бит/сек
Count of elements : 441
Размер потока : 24,9 Кбайт (0%)
Заголовок : FOCS
Язык : Russian
Default : Нет
Forced : Нет

Меню
00:43:02.583 : en:Credits

Внимание! Раздача ведётся путём добавления новых серий; при каждом добавлении создаётся новый торрент.
Чтобы начать докачку новой серии, пользователям необходимо сделать следующее:
1. Остановить скачивание;
2. Удалить старый торрент у себя из клиента (старые серии удалять не надо);
3. Скачать новый торрент и запустить его у себя в клиенте вместо старого, при этом указать клиенту путь в старую папку куда и должно происходить скачивание новых серий. Ваш клиент при этом должен произвести хеширование (проверку) старой папки и будет докачивать только те серии, которых у вас ещё нет. Старые серии при этом не удаляются, а продолжают раздаваться! Eсли вы уже удалили старые серии, то предотвратить повторную закачку старых серий можно, отжав галочку в соответствующих местах при запуске нового торрента.

067.vidak.icu



Скачать Лунный рыцарь через торрент https://i116.fastpic.org/big/2022/0331/7d/6e936eaf3e5084dedff5d5dedd2ee27d.jpg Скачать, смотреть онлайн Лунный рыцарь бесплантно в хорошем качестве Описание: Основанный на персонаже комиксов Marvel, созданном писателем Дугом Мёнчем и художником Доном Перлином, «Лунный рыцарь» от ... 10 10 22
Торрент: Зарегистрирован [2022-05-14 12:04] · скачан: 20 раз
Статус: √ проверено
Размер: 47.92 GB
Как cкачать? Как скачать Лунный рыцарь через торрент | UTorrent

% Раздел Тема Автор DL S | L
Зарубежные сериалы [ 15.24 GB ] Лунный рыцарь / Moon Knight / Сезон: 1 / Серии: 1-6 из 6 [2022 WEB-DL 1080p] 2xMVO [HDrezka Studio NewComers] bober100 Скачать
112 | 80
Зарубежные сериалы [ 3.3 GB ] Лунный рыцарь / Moon Knight / Сезон: 1 / Серии: 1-6 из 6 [2022 WEBRip] DUB [Red Head Sound] bober100 Скачать
17 | 1
Зарубежные сериалы [ 13.37 GB ] Лунный рыцарь / Moon Knight / Сезон: 1 / Серии: 1-6 из 6 [2022 WEB-DL 1080p] DUB [Red Head Sound] bober100 Скачать
15 | 4
Зарубежные сериалы [ 8.2 GB ] Лунный рыцарь / Moon Knight / Сезон: 1 / Серии: 1-3 из 6 [2022 WEB-DL 1080p] 2xMVO [LostFilm HDrezka Studio] bober100 Скачать
3 | 1
Фильмы с украинским озвучиванием [ 4.67 GB ] Лунный рыцарь / Moon Knight / Сезон: 1 / Серии: 1-6 из 6 [2022 WEBRip-AVC] [Ukr MVO] killermax2013 Скачать
1 | 1
Зарубежные сериалы [ 3.69 GB ] Лунный рыцарь / Moon Knight / Сезон: 1 / Серии: 1-6 из 6 [2022 WEB-DLRip] MVO [LostFilm] bober100 Скачать
18 | 0
Зарубежные сериалы [ 15.17 GB ] Лунный рыцарь / Moon Knight / Сезон: 1 / Серии: 1-6 из 6 [2022 WEB-DL 1080p] MVO [LostFilm] bober100 Скачать
18 | 3


Последний раз редактировалось: bober100 (2022-05-14 12:04), всего редактировалось 11 раз(а)

28-11-2019 20:33  

Отключить всю рекламу на сайте

31-03-2022 11:56 Лунный рыцарь Скачать торрент  

Начало не плохое067.vidak.icu



20-04-2022 14:57 Лунный рыцарь Скачать торрент  

Огонь сериал!!! прям отличный, только бы серии по быстрей появлялись :)067.vidak.icu



05-05-2022 07:44 Лунный рыцарь Скачать торрент  

печально что новые серии появляются в качестве очень медленно....067.vidak.icu



    Дорогой пользователь! Огромная просьба, поблагодарите релизера, оцените раздачу и оставьте свои комментарий, если Вы скачали Лунный рыцарь через торрент бесплатно!
    Комментировать посты могут только пользователи прошедшие не сложную регистрацию
    Показать сообщения:    

    Лунный рыцарь через торрент
    Скачать бесплатно Лунный рыцарь
    Лунный рыцарь скачать торрент
    Лунный рыцарь смотреть онлайн
    Cкачать фильм Лунный рыцарь бесплатно
    Лунный рыцарь скачать торрент в хорошем качестве
    Лунный рыцарь смотреть онлайн бесплатно в хорошем качестве


    Вы не можете начинать темы
    Вы не можете отвечать на сообщения
    Вы не можете редактировать свои сообщения
    Вы не можете удалять свои сообщения
    Вы не можете голосовать в опросах
    Вы не можете прикреплять файлы к сообщениям
    Вы можете скачивать файлы