Всегда рабочее зеркало без VPN и Proxy просто перед .vidak.icu напиши любое слово или цифру, Пример http://8dp1.vidak.icu

iTunes

2 сезон

1 сезон

1

1 сезон

iTunes

2 сезон

13

1 сезон

Deluxe

pack

Рекомендуем

Пиратка

30

ВАЖНО

RePack

MK11

RePack

jed

RePack

fifa19

RePack

RDR2

RePack

NEED FOR SPEED™ PAYBACK

Кинопоиск HD

6 сезон

 Острые козырьки 6 сезон

Все сериалы

все сериалы на PB.wtf

RePack

FAR CRY 5

Anonymous, нам критически не хватает 5601 руб. на оплату серверов и переферии за Апрель, помоги нам пожалуйста, вся надежда только на тебя. В благодарность мы отключим тебе всю рекламу на сайте!

×
  
Magnet ссылка

Слэпфейс / Slapface (Джереми Кипп) [2021, Ужасы, триллер, WEB-DL 720p] DUB [iTunes] 067.vidak.icu

Слэпфейс через торрент 067.vidak.icu

Раздают: 1 [ 0 KB/s ]
Размер: 1.31 GB | Добавлен: 16 д. назад | Торрент скачан:40 раз
Смотреть онлайн Слэпфейс | Скачать    Ребята, помогите собрать деньги на оплату серверов!!!

12-05-2022 13:50 Слэпфейс Скачать торрент  

Слэпфейс
Slapface

Год выпуска: 2021
Страна: США
Выпущено: Chhibber Mann Productions, Mirror Image Films, Artman Cooper Productions
Жанр: Ужасы, триллер
Продолжительность: 01:26:04
Перевод: Дублированный | iTunes
Субтитры: Английские

Режиссер: Джереми Кипп

rating

В ролях: Аугуст Матуро, Майк К. Мэннинг, Либэ Барер, Мирабель Ли, Бьянка Д'Амброзио, Кьяра Д'Амброзио, Лукас Хэссел, Дэн Хедайя, Аликс Шоттланд, Джон Бэкстрем

Описание: После смерти родителей Лукас живёт со старшим братом. Неприятности начинаются, когда он знакомится с Монстром, живущим в соседнем лесу. Пока не поздно, местный шериф должен остановить Лукаса и Монстра.

Качество: WEB-DL 720p
Формат: MKV

Видео: MPEG-4 AVC, 1272x530 at 24.000 fps, [email protected], ~1604 kbps
Аудио#1 RU: 48 kHz, AC3 Dolby Digital, 3/2 (L, C, R, l, r) + LFE ch, ~384 Kbps
Аудио#2 EN: 48.0 kHz, AC3 Dolby Digital, 2/0 (L,R) ch, ~ 192 kbps
скриншот  скриншот  скриншот  скриншот  скриншот  

x264 [info]: frame I:712 Avg QP:15.37 size: 53677
x264 [info]: frame P:28295 Avg QP:16.72 size: 17498
x264 [info]: frame B:94925 Avg QP:17.84 size: 5288

General
Unique ID : 292771690327645573585104674725971121208 (0xDC41C6CA7AAF3178A77D54CA1F1C5438)
Complete name : I:Slapface.2020.AMZN.DUB.WEB-DLRip.x264.mkv
Format : Matroska
Format version : Version 4
File size : 1.31 GiB
Duration : 1 h 26 min
Overall bit rate : 2 182 kb/s
Encoded date : UTC 2022-05-12 12:31:17
Writing application : mkvmerge v63.0.0 ('Everything') 64-bit
Writing library : libebml v1.4.2 + libmatroska v1.6.4
Cover : Yes
Attachments : cover.jpg / cover 2.jpg

Video
ID : 1
Format : AVC
Format/Info : Advanced Video Codec
Format profile : [email protected]
Format settings : CABAC / 12 Ref Frames
Format settings, CABAC : Yes
Format settings, Reference : 12 frames
Codec ID : V_MPEG4/ISO/AVC
Duration : 1 h 26 min
Bit rate : 1 604 kb/s
Width : 1 272 pixels
Height : 530 pixels
Display aspect ratio : 2.40:1
Frame rate mode : Constant
Frame rate : 24.000 FPS
Color space : YUV
Chroma subsampling : 4:2:0
Bit depth : 8 bits
Scan type : Progressive
Bits/(Pixel*Frame) : 0.099
Stream size : 987 MiB (73%)
Title : -=DoMiNo=-
Writing library : x264 core 164 r3094 bfc87b7
Encoding settings : cabac=1 / ref=12 / deblock=1:-3:-3 / analyse=0x3:0x133 / me=umh / subme=9 / psy=1 / psy_rd=1.00:0.15 / mixed_ref=1 / me_range=32 / chroma_me=1 / trellis=2 / 8x8dct=1 / cqm=0 / deadzone=21,11 / fast_pskip=1 / chroma_qp_offset=-3 / threads=17 / lookahead_threads=4 / sliced_threads=0 / nr=0 / decimate=1 / interlaced=0 / bluray_compat=0 / constrained_intra=0 / bframes=10 / b_pyramid=2 / b_adapt=2 / b_bias=0 / direct=1 / weightb=1 / open_gop=0 / weightp=2 / keyint=250 / keyint_min=24 / scenecut=40 / intra_refresh=0 / rc_lookahead=60 / rc=crf / mbtree=0 / crf=20.5 / qcomp=0.60 / qpmin=0 / qpmax=69 / qpstep=4 / vbv_maxrate=50000 / vbv_bufsize=62600 / crf_max=0.0 / nal_hrd=none / filler=0 / ip_ratio=1.30 / pb_ratio=1.20 / aq=1:0.90
Language : English
Default : Yes
Forced : No
Color range : Limited
Color primaries : BT.709
Transfer characteristics : BT.709
Matrix coefficients : BT.709

Audio #1
ID : 2
Format : AC-3
Format/Info : Audio Coding 3
Commercial name : Dolby Digital
Codec ID : A_AC3
Duration : 1 h 26 min
Bit rate mode : Constant
Bit rate : 384 kb/s
Channel(s) : 6 channels
Channel layout : L R C LFE Ls Rs
Sampling rate : 48.0 kHz
Frame rate : 31.250 FPS (1536 SPF)
Compression mode : Lossy
Stream size : 236 MiB (18%)
Title : DUB
Language : Russian
Service kind : Complete Main
Default : Yes
Forced : Yes

Audio #2
ID : 3
Format : AC-3
Format/Info : Audio Coding 3
Commercial name : Dolby Digital
Codec ID : A_AC3
Duration : 1 h 26 min
Bit rate mode : Constant
Bit rate : 192 kb/s
Channel(s) : 2 channels
Channel layout : L R
Sampling rate : 48.0 kHz
Frame rate : 31.250 FPS (1536 SPF)
Compression mode : Lossy
Stream size : 118 MiB (9%)
Language : English
Service kind : Complete Main
Default : No
Forced : No

Text #1
ID : 4
Format : UTF-8
Codec ID : S_TEXT/UTF8
Codec ID/Info : UTF-8 Plain Text
Duration : 1 h 20 min
Bit rate : 27 b/s
Count of elements : 674
Stream size : 16.3 KiB (0%)
Language : English
Default : No
Forced : No

Text #2
ID : 5
Format : UTF-8
Codec ID : S_TEXT/UTF8
Codec ID/Info : UTF-8 Plain Text
Duration : 1 h 25 min
Bit rate : 35 b/s
Count of elements : 1181
Stream size : 22.1 KiB (0%)
Title : SDH
Language : English
Default : No
Forced : No

Menu
00:00:00.000 : :Глава 01
00:12:30.000 : :Глава 02
00:25:00.000 : :Глава 03
00:37:30.000 : :Глава 04
00:50:00.000 : :Глава 05
01:02:30.000 : :Глава 06
01:15:00.000 : :Глава 07

067.vidak.icu



Скачать Слэпфейс через торрент https://i117.fastpic.org/big/2022/0512/1f/766563b59015953f864aad8119fb1d1f.jpg Скачать, смотреть онлайн Слэпфейс бесплантно в хорошем качестве Описание: После смерти родителей Лукас живёт со старшим братом. Неприятности начинаются, когда он знакомится с Монстром, живущим в соседнем ... 10 10 3
Торрент: Зарегистрирован [2022-05-12 13:50] · скачан: 40 раз
Статус: √ проверено
Размер: 1.31 GB
Как cкачать? Как скачать Слэпфейс через торрент | UTorrent

% Раздел Тема Автор DL S | L
Фильмы 2021 [DVDrip, WEB-DLRip, HDrip] (DUB, MVO) [ 745 MB ] Слэпфейс / Slapface [2021 WEB-DLRip] bober100 Скачать
1 | 0
Фильмы 2021 [DVDrip, WEB-DLRip, HDrip] (DUB, MVO) [ 1.37 GB ] Слэпфейс / Slapface [2021 WEB-DLRip] bober100 Скачать
2 | 0
Фильмы (WEB-DL 720p, 1080p) [ 3.81 GB ] Слэпфейс / Slapface [2021 WEB-DL 1080p] bober100 Скачать
5 | 0

28-11-2019 20:33  

Отключить всю рекламу на сайте

    Дорогой пользователь! Огромная просьба, поблагодарите релизера, оцените раздачу и оставьте свои комментарий, если Вы скачали Слэпфейс через торрент бесплатно!
    Комментировать посты могут только пользователи прошедшие не сложную регистрацию
    Показать сообщения:    

    Слэпфейс через торрент
    Скачать бесплатно Слэпфейс
    Слэпфейс скачать торрент
    Слэпфейс смотреть онлайн
    Cкачать фильм Слэпфейс бесплатно
    Слэпфейс скачать торрент в хорошем качестве
    Слэпфейс смотреть онлайн бесплатно в хорошем качестве


    Вы не можете начинать темы
    Вы не можете отвечать на сообщения
    Вы не можете редактировать свои сообщения
    Вы не можете удалять свои сообщения
    Вы не можете голосовать в опросах
    Вы не можете прикреплять файлы к сообщениям
    Вы можете скачивать файлы