Всегда рабочее зеркало без VPN и Proxy просто перед .vidak.icu напиши любое слово или цифру, Пример http://icbp.vidak.icu

iTunes

2 сезон

1 сезон

1

1 сезон

iTunes

2 сезон

13

1 сезон

Deluxe

pack

Рекомендуем

Пиратка

30

ВАЖНО

RePack

MK11

RePack

jed

RePack

fifa19

RePack

RDR2

RePack

NEED FOR SPEED™ PAYBACK

Кинопоиск HD

6 сезон

 Острые козырьки 6 сезон

Все сериалы

все сериалы на PB.wtf

RePack

FAR CRY 5

Anonymous, нам критически не хватает 5601 руб. на оплату серверов и переферии за Апрель, помоги нам пожалуйста, вся надежда только на тебя. В благодарность мы отключим тебе всю рекламу на сайте!

×
  
Magnet ссылка

Оторви и выбрось (Кирилл Соколов) [2021, Комедия, боевик, BDRip 1080p] [Лицензия] 067.vidak.icu

Оторви и выбрось через торрент 067.vidak.icu

Раздают: 6 [ 82 KB/s ]
Размер: 8.94 GB | Добавлен: 14 д. назад | Торрент скачан:107 раз
Смотреть онлайн Оторви и выбрось | Скачать    Ребята, помогите собрать деньги на оплату серверов!!!

12-05-2022 15:15 Оторви и выбрось Скачать торрент  

Оторви и выбрось
Год выпуска: 2021
Страна: Россия
Выпущено: Кинокомпания «САГа», Метрафильмс
Жанр: Комедия, боевик
Продолжительность: 01:39:08
Перевод: Не требуется | Лицензия
Субтитры: отсутствуют

Режиссер: Кирилл Соколов

rating

В ролях: Анна Михалкова, Виктория Короткова, Софья Кругова, Александр Яценко, Ольга Лапшина, Виталий Хаев, Данил Стеклов, Игорь Грабузов, Николай Шрайбер

Описание: От любящей родни не уйдешь. Суровая Вера Павловна отправляется в лихую погоню за своей внучкой Машей и непутёвой дочерью Олей. Помогает ей в этом Олег — все еще влюбленный в Олю «бывший», даже после того, как посадил за решетку. Кажется, во всей этой уморительной суматохе только маленькая Маша знает, как взрослым не слететь с катушек.

Качество: BDRip 1080p
Формат: MKV

Видео: AVC, 1920x804 (2,40:1), 11891 kbps, 24 fps
Аудио: 48 kHz, E-AC3, 5.1, 1024 kbps
скриншот  скриншот  скриншот  скриншот  скриншот  скриншот  

General
Unique ID : 99450360646179057593224016345429595543 (0x4AD1715861E5E8F80AD6C4EA387A5597)
Complete name : Otorvi.i.Vybros.2021.BDRip.1080p.Rus.-HELYWOOD.mkv
Format : Matroska
Format version : Version 4
File size : 8.94 GiB
Duration : 1 h 38 min
Overall bit rate : 12.9 Mb/s
Movie name : Оторви и выбрось (2021)
Encoded date : UTC 2022-05-15 08:57:57
Writing application : mkvmerge v62.0.0 ('Apollo') 64-bit
Writing library : libebml v1.4.2 + libmatroska v1.6.4

Video
ID : 1
Format : AVC
Format/Info : Advanced Video Codec
Format profile : [email protected]
Format settings : CABAC / 5 Ref Frames
Format settings, CABAC : Yes
Format settings, Reference frames : 5 frames
Codec ID : V_MPEG4/ISO/AVC
Duration : 1 h 38 min
Bit rate : 11.9 Mb/s
Width : 1 920 pixels
Height : 804 pixels
Display aspect ratio : 2.40:1
Frame rate mode : Constant
Frame rate : 24.000 FPS
Color space : YUV
Chroma subsampling : 4:2:0
Bit depth : 8 bits
Scan type : Progressive
Bits/(Pixel*Frame) : 0.321
Stream size : 8.23 GiB (92%)
Title : potroks
Writing library : x264 core 163
Encoding settings : cabac=1 / ref=5 / deblock=1:-3:-3 / analyse=0x3:0x113 / me=umh / subme=11 / psy=1 / psy_rd=1.05:0.05 / mixed_ref=1 / me_range=32 / chroma_me=0 / trellis=2 / 8x8dct=1 / cqm=0 / deadzone=21,11 / fast_pskip=0 / chroma_qp_offset=-3 / threads=19 / lookahead_threads=4 / sliced_threads=0 / nr=0 / decimate=1 / interlaced=0 / bluray_compat=0 / constrained_intra=0 / bframes=10 / b_pyramid=2 / b_adapt=2 / b_bias=0 / direct=0 / weightb=1 / open_gop=0 / weightp=2 / keyint=240 / keyint_min=23 / scenecut=40 / intra_refresh=0 / rc_lookahead=100 / rc=2pass / mbtree=1 / bitrate=11891 / ratetol=1.0 / qcomp=0.70 / qpmin=0 / qpmax=69 / qpstep=5 / cplxblur=20.0 / qblur=0.5 / vbv_maxrate=50000 / vbv_bufsize=62500 / nal_hrd=none / filler=0 / ip_ratio=1.35 / aq=2:0.80
Language : Russian
Default : Yes
Forced : No
Color range : Limited
Color primaries : BT.709
Transfer characteristics : BT.709
Matrix coefficients : BT.709

Audio
ID : 2
Format : E-AC-3
Format/Info : Enhanced AC-3
Commercial name : Dolby Digital Plus
Codec ID : A_EAC3
Duration : 1 h 38 min
Bit rate mode : Constant
Bit rate : 1 024 kb/s
Channel(s) : 6 channels
Channel layout : L R C LFE Ls Rs
Sampling rate : 48.0 kHz
Frame rate : 31.250 FPS (1536 SPF)
Compression mode : Lossy
Stream size : 725 MiB (8%)
Title : Original | DD+ 5.1 @ 1024 kbps
Language : Russian
Service kind : Complete Main
Default : Yes
Forced : No

Menu
00:00:00.000 : ru:Chapter 01
00:07:46.000 : ru:Chapter 02
00:15:43.000 : ru:Chapter 03
00:26:09.333 : ru:Chapter 04
00:32:38.750 : ru:Chapter 05
00:39:44.166 : ru:Chapter 06
00:48:39.250 : ru:Chapter 07
00:56:45.166 : ru:Chapter 08
01:05:09.958 : ru:Chapter 09
01:10:50.458 : ru:Chapter 10
01:20:24.375 : ru:Chapter 11
01:28:52.125 : ru:Chapter 12
01:35:49.250 : ru:Chapter 13
01:38:59.666 : ru:Chapter 14

067.vidak.icu



Скачать Оторви и выбрось через торрент https://i5.imageban.ru/out/2022/05/15/efebc8f9ab0d18ad8cb603828ae030c7.jpg Скачать, смотреть онлайн Оторви и выбрось бесплантно в хорошем качестве Описание: От любящей родни не уйдешь. Суровая Вера Павловна отправляется в лихую погоню за своей внучкой Машей и непутёвой дочерью Олей. ... 8.4 10 14
Info! Золотая раздача, скачанное не засчитывается.
Торрент: Зарегистрирован [2022-05-15 09:20] · скачан: 107 раз
Статус: √ проверено
Размер: 8.94 GB
Как cкачать? Как скачать Оторви и выбрось через торрент | UTorrent

% Раздел Тема Автор DL S | L
Наши новые фильмы 2020 - 2022 [ 2.18 GB ] Оторви и выбрось [2021 BDRip-AVC] [] bober100 Скачать
9 | 0
Наши новые фильмы 2020 - 2022 [ 1.46 GB ] Оторви и выбрось [2021 BDRip ] [] bober100 Скачать
14 | 0
Наши фильмы (Blu-ray, BD-Remux, HDDVD) [ 19.69 GB ] Оторви и выбрось [2021 Blu-ray 1080p ] [] bober100 Скачать
3 | 1
Наши фильмы (HD, WEB-DL 720p, 1080p) [ 5.42 GB ] Оторви и выбрось [2021 BDRip 720p] [] bober100 Скачать
7 | 0

28-11-2019 20:33  

Отключить всю рекламу на сайте

    Дорогой пользователь! Огромная просьба, поблагодарите релизера, оцените раздачу и оставьте свои комментарий, если Вы скачали Оторви и выбрось через торрент бесплатно!
    Комментировать посты могут только пользователи прошедшие не сложную регистрацию
    Показать сообщения:    

    Оторви и выбрось через торрент
    Скачать бесплатно Оторви и выбрось
    Оторви и выбрось скачать торрент
    Оторви и выбрось смотреть онлайн
    Cкачать фильм Оторви и выбрось бесплатно
    Оторви и выбрось скачать торрент в хорошем качестве
    Оторви и выбрось смотреть онлайн бесплатно в хорошем качестве


    Вы не можете начинать темы
    Вы не можете отвечать на сообщения
    Вы не можете редактировать свои сообщения
    Вы не можете удалять свои сообщения
    Вы не можете голосовать в опросах
    Вы не можете прикреплять файлы к сообщениям
    Вы можете скачивать файлы